[Mini-HD] นาร์เนีย 3 [พากย์:ไทย/อังกฤษ][SUB:ไทย/อังกฤษ][720i/p]

อ่านหัวข้อก่อนหน้า อ่านหัวข้อถัดไป Go down

[Mini-HD] นาร์เนีย 3 [พากย์:ไทย/อังกฤษ][SUB:ไทย/อังกฤษ][720i/p]

ตั้งหัวข้อ  Admin on Sat Apr 09, 2011 4:16 pm

[b][br][br][Mini-HD] นาร์เนีย 3 [พากย์:ไทย/อังกฤษ][SUB:ไทย/อังกฤษ][720i/p]




The Chronicles of Narnia The Voyage of the Dawn Treader 2010 อภินิหารตำนานแห่งนาร์เนีย ตอน ผจญภัยโพ้นทะเล

รายละเอียดเรื่องย่อ/Synopsis
ลูซี่ และ.เอ๊ดมันด์ พีเวนซี่ เดินทางกลับไปนาร์เนียพร้อมกับอูสตาซี่ ญาติของพวกเขา และ.ได้ พบกับเจ้าชายแคสเปี้ยนซึ่งได้ท่องทะเลไปด้วยกันบนเรือหลวง เดอะ ดอว์น เทรดเดอร์ มุ่งหน้าสู่ขอบโลก ระหว่างการเดินทางพวกเขาต้องเผชิญทั้งมังกร คนแคระ กลุ่มนักรบผู้สาบสูญ ฯลฯ ในอภิมหาการผจญภัยภาคที่ 3 แห่งตำนานนาร์เนียอันลือลั่น

นักแสดง/Actors :
- Ben Barnes
- Skandar Keynes
- Georgie Henley
- Tilda Swinton

ผู้กำกับ/Directors :
- Michael Apted


General
Unique ID : 222945688532481349288919854399480012844 (0xA7B9C71ABBD270ACB1F159F457B6202C)
Complete name : E:nfsphuketdownloadRip[Mini-HD] The Chronicles of Narnia The Voyage of the Dawn Treader 2010 BluRay 720p DTS x264-CtHtsThe Chronicles of Narnia The Voyage of the Dawn Treader 2010 BluRay 720p DTS x264-CtHts.new.mkv
Format : Matroska
File size : 3.22 GiB
Duration : 1h 52mn
Overall bit rate : 4 095 Kbps
Encoded date : UTC 2011-03-29 15:29:47
Writing application : mkvmerge v3.4.0 ('Rapunzel') built on May 15 2010 09:38:20
Writing library : libebml v0.8.0 + libmatroska v0.9.0

Video
ID : 1
Format : AVC
Format/Info : Advanced Video Codec
Format profile : Main@L3.1
Format settings, CABAC : Yes
Format settings, ReFrames : 3 frames
Codec ID : V_MPEG4/ISO/AVC
Duration : 1h 52mn
Bit rate : 2 200 Kbps
Width : 1 280 pixels
Height : 720 pixels
Display aspect ratio : 16:9
Frame rate mode : Constant
Frame rate : 23.976 fps
Color space : YUV
Chroma subsampling : 4:2:0
Bit depth : 8 bits
Scan type : Progressive
Bits/(Pixel*Frame) : 0.100
Stream size : 1.67 GiB (52%)
Title : The Chronicles of Narnia The Voyage of the Dawn Treader 2010 BluRay 720p DTS x264-CtHts
Writing library : x264 core 86 r1442M 781d300
Encoding settings : cabac=1 / ref=2 / deblock=1:0:0 / analyse=0x1:0 / me=hex / subme=7 / psy=1 / psy_rd=1.00:0.00 / mixed_ref=0 / me_range=16 / chroma_me=0 / trellis=0 / 8x8dct=0 / cqm=0 / deadzone=21,11 / fast_pskip=0 / chroma_qp_offset=-2 / threads=8 / sliced_threads=0 / nr=0 / decimate=1 / interlaced=0 / constrained_intra=0 / bframes=3 / b_pyramid=1 / b_adapt=1 / b_bias=0 / direct=3 / wpredb=1 / wpredp=0 / keyint=230 / keyint_min=23 / scenecut=40 / intra_refresh=0 / rc=abr / mbtree=0 / bitrate=2200 / ratetol=0.2 / qcomp=0.60 / qpmin=10 / qpmax=51 / qpstep=4 / ip_ratio=1.41 / pb_ratio=1.25 / aq=1:1.00 / pulldown=0
Language : English

Audio #1
ID : 2
Format : AC-3
Format/Info : Audio Coding 3
Mode extension : CM (complete main)
Codec ID : A_AC3
Duration : 1h 52mn
Bit rate mode : Constant
Bit rate : 384 Kbps
Channel(s) : 6 channels
Channel positions : Front: L C R, Side: L R, LFE
Sampling rate : 48.0 KHz
Bit depth : 16 bits
Compression mode : Lossy
Stream size : 309 MiB (9%)
Title : Thai AC3-384kbps[dvd master]
Language : Thai

Audio #2
ID : 3
Format : DTS
Format/Info : Digital Theater Systems
Codec ID : A_DTS
Duration : 1h 52mn
Bit rate mode : Constant
Bit rate : 1 510 Kbps
Channel(s) : 6 channels
Channel positions : Front: L C R, Side: L R, LFE
Sampling rate : 48.0 KHz
Bit depth : 24 bits
Compression mode : Lossy
Stream size : 1.19 GiB (37%)
Title : DTS-CORE 1536K
Language : English

Text #1
ID : 4
Format : VobSub
Muxing mode : zlib
Codec ID : S_VOBSUB
Codec ID/Info : The same subtitle format used on DVDs
Title : Thai [dvd master]
Language : Thai

Text #2
ID : 5
Format : VobSub
Muxing mode : zlib
Codec ID : S_VOBSUB
Codec ID/Info : The same subtitle format used on DVDs
Title : Thai [dvd master]
Language : Thai

Text #3
ID : 6
Format : VobSub
Muxing mode : zlib
Codec ID : S_VOBSUB
Codec ID/Info : The same subtitle format used on DVDs
Title : English [dvd master]
Language : English

SS:



เสียงซับไทยมาจาก dvd master ที่จัดมาโดย ท่าน Legendrider ขอบคุณครับ

เครดิตทีมงานสังคมแห่งการแบ่งปัน
Credit: CtHts (Coming together. Happy to share)
[nfsphuket,rimudi,darkvador,JFC,netboy,darnphuket,rakkhunna,GG44,komkam,maxbomb,bOyziOO,DRAGONFAT,vzio,AnfieldRoad,SparrOwZ,Champ14Za,one111,utd,KingMovie,yorukung,IINOYII]


Download 3.22 GB :
http://adf.ly/18Tlm 1
www.it-relax.tk 2


[size=20pt]โหลดหนัง โหลดเพลง โหลดโปรแกรม โหลด18+

www.it-relax.tk[/size]
[br][br][b] Get more detail : http://www.testcode-zaishiro.blogspot.com/

Admin
Admin

จำนวนข้อความ : 82
Join date : 02/04/2011

ดูข้อมูลส่วนตัว http://itzone.forumth.com

ขึ้นไปข้างบน Go down

อ่านหัวข้อก่อนหน้า อ่านหัวข้อถัดไป ขึ้นไปข้างบน


 
Permissions in this forum:
คุณไม่สามารถพิมพ์ตอบ